?

Log in

каякерское - Оживший юзерпик

Nov. 6th, 2006

11:36 am - каякерское

Previous Entry Share Next Entry

Выложил у себя несколько видеороликов с уроками эскимоса (на аглийском, но все понятно).

Comments:

[User Picture]
From:yaker
Date:November 6th, 2006 12:36 pm (UTC)
(Link)
Ничего не видно. Выложи, плиз, кодек от этого.
(Reply) (Thread)
[User Picture]
From:tobotras
Date:November 6th, 2006 12:52 pm (UTC)
(Link)
Ой, у меня линуксовые плейеры молча играют. На винде стоит K-Lite codec pack, тоже играет, какой именно кодек там используется, фиг знает, но он и целиком невелик -- 7Mb, что ли...
(Reply) (Parent) (Thread)
[User Picture]
From:yaker
Date:November 6th, 2006 01:02 pm (UTC)
(Link)
А, этот есть.
(Reply) (Parent) (Thread)
[User Picture]
From:tobotras
Date:November 6th, 2006 01:06 pm (UTC)
(Link)
Помогло?
(Reply) (Parent) (Thread)
[User Picture]
From:yaker
Date:November 6th, 2006 01:12 pm (UTC)
(Link)
Нет :-/.
(Reply) (Parent) (Thread)
[User Picture]
From:tobotras
Date:November 6th, 2006 01:15 pm (UTC)
(Link)
Stream #0.0: Video: mpeg4, yuv420p, 320x240, 29.97 fps(r)
Stream #0.1: Audio: mp2, 22050 Hz, mono, 64 kb/s
(Reply) (Parent) (Thread)
[User Picture]
From:yaker
Date:November 6th, 2006 01:45 pm (UTC)
(Link)
Увы, не работает. Ни на одной из двух машин.
(Reply) (Parent) (Thread)
From:sever1
Date:November 7th, 2006 02:39 pm (UTC)
(Link)
мы тоже все поняли по-эскимосски, но уже хочется видеть тебя, а не твои мультики))
(Reply) (Thread)