?

Log in

No account? Create an account

каякерское - Оживший юзерпик

Nov. 6th, 2006

11:36 am - каякерское

Previous Entry Share Next Entry

Comments:

[User Picture]
From:tobotras
Date:November 6th, 2006 01:15 pm (UTC)
(Link)
Stream #0.0: Video: mpeg4, yuv420p, 320x240, 29.97 fps(r)
Stream #0.1: Audio: mp2, 22050 Hz, mono, 64 kb/s
(Reply) (Parent) (Thread)
[User Picture]
From:yaker
Date:November 6th, 2006 01:45 pm (UTC)
(Link)
Увы, не работает. Ни на одной из двух машин.
(Reply) (Parent) (Thread)